[Sperma-Studio.com] Jessy, Slippery (Take 1 / 02-06-2020) [Blowbang, Blowjobs, Creampie, Cum Swallowing, Deepthroat, Gangbang, SD]

Ответить на тему
Статистика раздачи
Размер:  314 MB   |    Зарегистрирован:  7 дней   |    Скачан:  4 раза
Сидов:  5   Личеров:  1  
 
 
Автор Сообщение

erzsebet ®

Стаж: 18 лет

Сообщений: 523043

Откуда: Венгрия

Создавать темы 16-Сен-2020 07:08  |  Сменить автора

[Цитировать] 

Actress: Jessy, Slippery
Year: 2020
Genre: Blowbang, Blowjobs, Creampie, Cum Swallowing, Deepthroat, Gangbang, Sperma-Studio
File details:
Format: mp4
Duration: 00:38:50
Size: 314 MB
Video: AVC, 720x400, 25.000 FPS, 1000 kb/s
Audio: AAC LC , 48.0 kHz, 2 channels, 128 kb/s

MediaInfo

Общее
Полное имя : D:\Downloads\Jessy & Slippery Take 1 (02-06-2020) [erzsebet.org].mp4
Формат : MPEG-4
Профиль формата : Base Media
Идентификатор кодека : isom (isom/iso2/avc1/mp41)
Размер файла : 314 Мбайт
Продолжительность : 38 м. 50 с.
Общий поток : 1 129 Кбит/сек
Программа кодирования : Lavf58.29.100
Видео
Идентификатор : 1
Формат : AVC
Формат/Информация : Advanced Video Codec
Профиль формата : [email protected]
Настройки формата : CABAC / 5 Ref Frames
Параметр CABAC формата : Да
Параметр RefFrames формата : 5 кадров
Идентификатор кодека : avc1
Идентификатор кодека/Информация : Advanced Video Coding
Продолжительность : 38 м. 50 с.
Битрейт : 1 000 Кбит/сек
Ширина : 720 пикселей
Высота : 400 пикселей
Соотношение сторон : 16:9
Режим частоты кадров : Постоянный
Частота кадров : 25,000 кадров/сек
Цветовое пространство : YUV
Субдискретизация насыщенности : 4:2:0
Битовая глубина : 8 бит
Тип развёртки : Прогрессивная
Бит/(Пиксели*Кадры) : 0.139
Размер потока : 276 Мбайт (88%)
Библиотека кодирования : x264 core 152 r2851M ba24899
Настройки программы : cabac=1 / ref=5 / deblock=1:0:0 / analyse=0x3:0x113 / me=hex / subme=8 / psy=1 / psy_rd=1.00:0.00 / mixed_ref=1 / me_range=16 / chroma_me=1 / trellis=2 / 8x8dct=1 / cqm=0 / deadzone=21,11 / fast_pskip=1 / chroma_qp_offset=-2 / threads=12 / lookahead_threads=2 / sliced_threads=0 / nr=0 / decimate=1 / interlaced=0 / bluray_compat=0 / constrained_intra=0 / bframes=3 / b_pyramid=2 / b_adapt=1 / b_bias=0 / direct=3 / weightb=1 / open_gop=0 / weightp=2 / keyint=250 / keyint_min=25 / scenecut=40 / intra_refresh=0 / rc_lookahead=50 / rc=abr / mbtree=1 / bitrate=1000 / ratetol=1.0 / qcomp=0.60 / qpmin=0 / qpmax=69 / qpstep=4 / ip_ratio=1.40 / aq=1:1.00
Codec configuration box : avcC
Аудио
Идентификатор : 2
Формат : AAC LC
Формат/Информация : Advanced Audio Codec Low Complexity
Идентификатор кодека : mp4a-40-2
Продолжительность : 38 м. 50 с.
Duration_LastFrame : -11 мс.
Вид битрейта : Постоянный
Битрейт : 128 Кбит/сек
Каналы : 2 канала
Channel layout : L R
Частота : 48,0 КГц
Частота кадров : 46,875 кадров/сек (1024 SPF)
Метод сжатия : С потерями
Размер потока : 35,7 Мбайт (11%)
Default : Да
Alternate group : 1

Screenshots

[erzsebet.org].t2979781.torrent
Торрент: Зарегистрирован [ 2020-09-16 07:08 ]

Скачать .torrent

Скачать

831 B

Статус: проверено
Скачан: 4 раз
Размер: 314 MB
Поблагодарили: 0  Спасибо
terms.php
Связанные раздачи
Добавлен Темы Размер S / L Ссылка
16-Сен-20 21:12 [Sperma-Studio.com] Jessy, Slippery (Take 1 / 02-06-2020) [Blowbang, Blowjobs, Creampie, Cum Swallowing, Deepthroat, Gangbang, 1080p, HDRip]Отв. 0 2.77 GB 3 | 0 Скачать .torrent
[Профиль]  [ЛС] 
Показать сообщения:    
Ответить на тему

Текущее время: 24-Сен 04:55

Часовой пояс: UTC + 3



Вы не можете начинать темы
Вы не можете отвечать на сообщения
Вы не можете редактировать свои сообщения
Вы не можете удалять свои сообщения
Вы не можете голосовать в опросах
Вы не можете прикреплять файлы к сообщениям
Вы можете скачивать файлы