Black Widow / Черная Вдова (Michael Raven / Wicked) [2007, Feature, Straight, HDDVDRip]

Ответить на тему
Статистика раздачи
Размер:  1.95 GB   |    Зарегистрирован:  9 дней   |    Скачан:  0 раз
Сидов:  2   Личеров:  1  
 
 
Автор Сообщение

erzsebet ®

Стаж: 18 лет

Сообщений: 523664

Откуда: Венгрия

Создавать темы 16-Сен-2020 04:50  |  Сменить автора

[Цитировать] 

Black Widow / Черная Вдова

Год производства: 2007 Страна: USA Жанр: Feature, Straight
Продолжительность: 01h 40min Режиссер: Michael Raven Студия: Wicked
В ролях:
Stormy Daniels • Barrett Blade • Carmel Hart • Cheyne Collins • Dick Nasty • Kayden Faye • Kayla Carrera • Marco Banderas • Myles Camack • Randy Spears.
Описание:
While most young girls dream of white picket fences and getting happily married when they grow up, Peyton (Stormy Daniels) always had other plans. At the age of 20, she meets Charles (Randy Spears), an older man of wealth and status. After seducing him into marrying her, she deviously begins putting her plan into action. As the picture perfect wife, she gives him everything a man could ask for: allowing him to have sex with other women and performing for him with other men. But as their three-year anniversary nears, it’s time for her dreams to come true, to become a black widow. Peyton begins to slowly poison Charles, but he has a plan of his own…will the predator become the prey?
Качество: HDDVDRip
Формат: MKV
Видео: MPEG4 Video (H264) 854x480 59.94fps 2400kbps
Аудио: Dolby AC3 48000Hz 6ch 384kbps

MediaInfo

General
Unique ID : 230609434526639828209495884179003138020 (0xAD7DC2F45EFD4345A763C544585BDFE4)
Complete name : D:\Downloads\Black Widow [erzsebet.pl].mkv
Format : Matroska
Format version : Version 2
File size : 1.95 GiB
Duration : 1 h 40 min
Overall bit rate : 2 788 kb/s
Movie name : Black Widow [erzsebet.org]
Encoded date : UTC 2020-09-15T21:02:19Z
Writing application : HandBrake 0.10.5 2016021100
Writing library : Lavf55.12.0
Video
ID : 1
Format : AVC
Format/Info : Advanced Video Codec
Format profile : [email protected]
Format settings : CABAC / 8 Ref Frames
Format settings, CABAC : Yes
Format settings, Reference fra : 8 frames
Codec ID : V_MPEG4/ISO/AVC
Duration : 1 h 40 min
Bit rate : 2 400 kb/s
Width : 854 pixels
Height : 480 pixels
Display aspect ratio : 16:9
Frame rate mode : Constant
Frame rate : 59.940 (60000/1001) FPS
Color space : YUV
Chroma subsampling : 4:2:0
Bit depth : 8 bits
Scan type : Progressive
Bits/(Pixel*Frame) : 0.098
Stream size : 1.64 GiB (84%)
Writing library : x264 core 142 r2479 dd79a61
Encoding settings : cabac=1 / ref=8 / deblock=1:-1:-1 / analyse=0x3:0x133 / me=umh / subme=9 / psy=1 / psy_rd=1.00:0.15 / mixed_ref=1 / me_range=16 / chroma_me=1 / trellis=2 / 8x8dct=1 / cqm=0 / deadzone=21,11 / fast_pskip=1 / chroma_qp_offset=-3 / threads=6 / lookahead_threads=1 / sliced_threads=0 / nr=0 / decimate=1 / interlaced=0 / bluray_compat=0 / constrained_intra=0 / bframes=3 / b_pyramid=2 / b_adapt=2 / b_bias=0 / direct=3 / weightb=1 / open_gop=0 / weightp=2 / keyint=600 / keyint_min=60 / scenecut=40 / intra_refresh=0 / rc_lookahead=60 / rc=2pass / mbtree=1 / bitrate=2400 / ratetol=1.0 / qcomp=0.60 / qpmin=0 / qpmax=69 / qpstep=4 / cplxblur=20.0 / qblur=0.5 / vbv_maxrate=62500 / vbv_bufsize=78125 / nal_hrd=none / filler=0 / ip_ratio=1.40 / aq=1:1.00
Default : Yes
Forced : No
Color range : Limited
Color primaries : BT.709
Transfer characteristics : BT.709
Matrix coefficients : BT.709
Duration_Source : General_Duration
Audio
ID : 2
Format : AC-3
Format/Info : Audio Coding 3
Commercial name : Dolby Digital
Codec ID : A_AC3
Duration : 1 h 40 min
Bit rate mode : Constant
Bit rate : 384 kb/s
Channel(s) : 6 channels
Channel layout : L R C LFE Ls Rs
Sampling rate : 48.0 kHz
Frame rate : 31.250 FPS (1536 SPF)
Compression mode : Lossy
Stream size : 275 MiB (14%)
Title : Surround
Language : English
Service kind : Complete Main
Default : Yes
Forced : No
Duration_Source : General_Duration
Menu
00:00:00.000 : :Chapter 1
00:05:36.886 : :Chapter 2
00:09:33.523 : :Chapter 3
00:14:56.796 : :Chapter 4
00:17:58.894 : :Chapter 5
00:20:42.007 : :Chapter 6
00:21:56.081 : :Chapter 7
00:25:58.790 : :Chapter 8
00:29:16.288 : :Chapter 9
00:31:26.701 : :Chapter 10
00:32:55.740 : :Chapter 11
00:34:27.982 : :Chapter 12
00:35:01.499 : :Chapter 13
00:43:03.814 : :Chapter 14
00:46:16.957 : :Chapter 15
00:50:02.900 : :Chapter 16
00:52:17.534 : :Chapter 17
00:54:00.787 : :Chapter 18
01:02:53.586 : :Chapter 19
01:05:14.827 : :Chapter 20
01:07:55.254 : :Chapter 21
01:09:28.748 : :Chapter 22
01:11:54.260 : :Chapter 23
01:14:13.032 : :Chapter 24
01:20:28.640 : :Chapter 25
01:26:48.787 : :Chapter 26
01:27:25.573 : :Chapter 27
01:30:10.855 : :Chapter 28
01:32:12.243 : :Chapter 29
01:33:23.548 : :Chapter 30
01:35:12.723 : :Chapter 31
01:37:04.468 : :Chapter 32

Скринлист

[erzsebet.org].t2979776.torrent
Торрент: Зарегистрирован [ 2020-09-16 04:50 ]

Скачать .torrent

Скачать

3 KB

Статус: проверено
Скачан: 0 раз
Размер: 1.95 GB
Поблагодарили: 0  Спасибо
terms.php
Связанные раздачи
Добавлен Темы Размер S / L Ссылка
09-Сен-20 03:17 Black Widow / Черная Вдова (Michael Raven / Wicked) [2007, Feature, Straight, 720p, HDDVDRip]Отв. 0 5.86 GB 1 | 0 Скачать .torrent
03-Июл-19 02:00 Black Widow / Черная Вдова (Michael Raven / Wicked) [2007, Feature, Straight, 720p, HDDVDRemux]Отв. 0 8.37 GB | Скачать .torrent
16-Фев-19 13:15 Black Widow / Черная Вдова (Michael Raven / Wicked) [2007, Feature, Straight, 720p, HD-DVD]Отв. 0 13.87 GB | Скачать .torrent
[Профиль]  [ЛС] 
Показать сообщения:    
Ответить на тему

Текущее время: 25-Сен 11:51

Часовой пояс: UTC + 3



Вы не можете начинать темы
Вы не можете отвечать на сообщения
Вы не можете редактировать свои сообщения
Вы не можете удалять свои сообщения
Вы не можете голосовать в опросах
Вы не можете прикреплять файлы к сообщениям
Вы можете скачивать файлы