Christoph's Beautiful Girls 1, 2, 3, 4, 5, 6, 7, 8, 9, 10, 11, 12, 13, 14, 15, 16, 17, 18, 19, 20, 21 (Christoph Clark / Clark Euro Angel Video) [2001-2005, Gonzo, European, DVD9] by erzsebet & Gwori

Ответить на тему
Статистика раздачи
Размер:  159.86 GB   |    Зарегистрирован:  18 дней   |    Скачан:  0 раз
Сидов:  2   Личеров:  3  
 
 
Автор Сообщение

erzsebet ®

Стаж: 18 лет

Сообщений: 522174

Откуда: Венгрия

Создавать темы 03-Сен-2020 12:31  |  Сменить автора

[Цитировать] 

Christoph's Beautiful Girls 1 (Красивые девушки Кристофа Кларка 1) Год производства: 2001 г.
Страна: USA
Жанр: Gonzo, Anal, A2M, DP
Продолжительность: 02:17:40
Режиссер: Christoph Clark
Студия: Evil Angel
Язык: Английский
В ролях: Alexandra Schiffer, Suzie Sweet, Rita Faltoyano, Monica Moore, Sheila Scott, Monique, Leslie Taylor, Alberto Rey, David Perry, Pascal St. James, Hatman, Christoph Clark
Описание: The Nastiest Party Girls!
Christoph's girls are lovely . . . and always lusty! Starring Alexa Schiffer, Suzy Sweet, Monica Moore, Sheila Scott, Rita Faltoyano, Alberto Rey and more.
https://www.adultdvdempire.com/25789/christophs-bea...amp;utm_content=
Доп. информация: Photo Gallery, Extra Footage
Сцены:
Scene 1. Alexandra Schiffer, Alberto Rey, David Perry
Scene 2. Suzie Sweet, Leslie Taylor
Scene 3. Rita Faltoyano, David Perry, Leslie Taylor
Scene 4. Suzie Sweet, Pascal St. James
Scene 5. Monica Moore, Sheila Scott, David Perry, Hatman
Scene 6. Suzie Sweet, Christoph Clark
Scene 7. Monique, Alberto Rey, Pascal St. James
Меню: Есть
Качество видео: DVD9
Видео: MPEG2 Video, 720x480, 4:3, 29.970 fps, ~6000 kb/s
Аудио: AC3 Dolby Digital, 48000Hz, 2ch, 192 kbps

Скриншоты

Меню

Скринлист

Скриншоты


Christoph's Beautiful Girls 2 (Красивые девушки Кристофа Кларка 2) Год производства: 2001 г.
Страна: USA
Жанр: Gonzo, Anal, DP, Lesbian
Продолжительность: 02:18:40
Режиссер: Christoph Clark
Студия: Evil Angel
Язык: Английский
В ролях: Claudia, Victoria Princess, Edina Wiesler, Katalin Kiraly, Adrienne Klass, Nikky Blond, Edina Marcos, Gabriella Kerez, Mercedes, Melinda Vecsey, Christoph Clark, Choky Ice, Renato, David Perry
Описание: Beautiful and horny. What a combo! Christoph Clark rounds up the beautiful girls and European beauties who are hot and wet for some serious dick down. Ten gorgeous girls, all new and fresh waiting to get their impure thoughts into reality! Join in on the fun with beautiful girls!
https://www.adultdvdempire.com/39157/christophs-bea...amp;utm_content=
Доп. информация: Photo Gallery, Cutting - Room Floor
Сцены:
Scene 1. Claudia, Victoria Princess, David Perry
Scene 2. Edina Wiesler, Katalin Kiraly
Scene 3. Adrienne Klass, Renato
Scene 4. Nikky Blond, Choky Ice
Scene 5. Edina Marcos, Gabriella Kerez, Christoph Clark
Scene 6. Mercedes, Melinda Vecsey, Choky Ice, David Perry
Меню: Есть
Качество видео: DVD9
Видео: MPEG2 Video, 720x480, 4:3, 29.970 fps, ~7000 kb/s
Аудио: AC3 Dolby Digital, 48000Hz, 2ch, 192 kbps

Скриншоты

Меню

Скринлист

Скриншоты

Christoph's Beautiful Girls 3 (Красивые девушки Кристофа Кларка 3) Год производства: 2001 г.
Страна: USA
Жанр: Gonzo, Anal, DP, Lesbian
Продолжительность: 02:19:36
Режиссер: Christoph Clark
Студия: Evil Angel
Язык: Английский
В ролях: Alissa, Sylvia Dahl, Sandra Taylor, Viva, Honey, Mary Cat, Angel, Susie Sorrento, Hatman, Jean-Michel Kossa, Brandon Iron, Leslie Taylor, Steve Holmes, Christoph Clark, Ian Scott
Описание: In Part three of the series, once again Christoph brings you gorgeous European girls who just love sex! Anal Sex! Lots of DP, anal, blowjobs threesomes and ball sucking in a variety of places. Christoph certainly makes a scene more interesting with his use of props and his fingers to make girls ass spread and gape wide for that big cock.
https://www.adultdvdempire.com/42811/christophs-bea...amp;utm_content=
Доп. информация: Photo Gallery, Cutting - Room Floor
Сцены:
Scene 1. Alissa, Sylvia Dahl, Christoph Clark, Leslie Taylor, Ian Scott
Scene 2. Sandra Taylor, Viva, Leslie Taylor, Steve Holmes
Scene 3. Honey, Mary Cat, Brandon Iron, Christoph Clark
Scene 4. Angel, Susie Sorrento, Hatman, Jean-Michel Kossa
Scene 5. Angel, Christoph Clark, Ian Scott
Меню: Есть
Качество видео: DVD9
Видео: MPEG2 Video, 720x480, 4:3, 29.970 fps, ~7000 kb/s
Аудио: AC3 Dolby Digital, 48000Hz, 2ch, 192 kbps

Скриншоты

Меню

Скринлист

Скриншоты

Christoph's Beautiful Girls 4
Год производства: 2002
Жанр: Gonzo, Anal, Facial, DP, DAP, IR, A2M, Lesbian
Продолжительность: 02:19:30
Язык: Английский
Режиссер: Christoph Clark
Студия: Clark Euro Angel Video
Scene Breakdowns
Scene 1. Jennifer Red, Mandy Bright, Orsi Shine, Franco Roccaforte, Leslie Taylor, Steve Holmes
Scene 2. Sandra Romain, Sandra Taylor, Alberto Rey, Leslie Taylor, Ramon Nomar, Steve Holmes
Scene 3. Bia, Cony Ferrara, Franco Roccaforte, Steve Holmes
Scene 4. Agnes Fodor, Nicole Thompson, Franco Roccaforte, Steve Holmes
Scene 5. Sandra Romain, Venuss
Меню: Есть
Качество видео: DVD9
Видео: MPEG-2, 720x480, 29.970 (30000/1001) FPS, 5 137 kb/s
Аудио: AC-3, 48.0 kHz, 2 channels, 192 kb/s

MediaInfo

General
Complete name                            : VTS_01_1.VOB
Format                                   : MPEG-PS
File size                                : 1 024 MiB
Duration                                 : 26 min 19 s
Overall bit rate mode                    : Variable
Overall bit rate                         : 5 437 kb/s
Video
ID                                       : 224 (0xE0)
Format                                   : MPEG Video
Format version                           : Version 2
Format profile                           : [email protected]
Format settings                          : BVOP
Format settings, BVOP                    : Yes
Format settings, Matrix                  : Default
Format settings, GOP                     : M=2, N=9
Format settings, picture structure       : Frame
Duration                                 : 26 min 19 s
Bit rate mode                            : Variable
Bit rate                                 : 5 137 kb/s
Maximum bit rate                         : 9 500 kb/s
Width                                    : 720 pixels
Height                                   : 480 pixels
Display aspect ratio                     : 4:3
Frame rate                               : 29.970 (30000/1001) FPS
Standard                                 : NTSC
Color space                              : YUV
Chroma subsampling                       : 4:2:0
Bit depth                                : 8 bits
Scan type                                : Interlaced
Scan order                               : Top Field First
Compression mode                         : Lossy
Bits/(Pixel*Frame)                       : 0.496
Time code of first frame                 : 01:00:08;00
Time code source                         : Group of pictures header
GOP, Open/Closed                         : Open
Stream size                              : 967 MiB (94%)
Color primaries                          : BT.601 NTSC
Transfer characteristics                 : BT.601
Matrix coefficients                      : BT.601
Audio
ID                                       : 189 (0xBD)-128 (0x80)
Format                                   : AC-3
Format/Info                              : Audio Coding 3
Muxing mode                              : DVD-Video
Duration                                 : 26 min 19 s
Bit rate mode                            : Constant
Bit rate                                 : 192 kb/s
Channel(s)                               : 2 channels
Channel positions                        : Front: L R
Sampling rate                            : 48.0 kHz
Frame rate                               : 31.250 FPS (1536 SPF)
Bit depth                                : 16 bits
Compression mode                         : Lossy
Stream size                              : 36.2 MiB (4%)
Service kind                             : Complete Main
Menu
Christoph's Beautiful Girls 5 (Красивые девушки Кристофа Кларка 5) Год производства: 2002 г.
Страна: USA
Жанр: Gonzo, Anal, Hardcore
Продолжительность: 02:16:21
Режиссер: Christoph Clark
Студия: Evil Angel
Язык: Английский
В ролях: Sharon Babe, Valentina Valli, Sophia Marquez, Silvia Lancome, Diana Rossi, Nicol, Carol, Nicky Reed, Andrea Moranty, Christoph Clark, David Perry, Greg Centauro, Manuel Ferrara, Titof, Steve Holmes
Описание: Sexy hot whores looking for the right cock! See girls like Linda, Natalka, Sharon, and Nikol so cock hungry that it takes no time for them to find some hard thick rods and start the party right. Excellent foursome action through out the entire film, with pussy gaping action and throat poking.
https://www.adultdvdempire.com/216649/christophs-be...amp;utm_content=
Доп. информация: Photo Gallery, Extra Sex
Сцены:
Scene 1. Sharon Babe, Greg Centauro, Manuel Ferrara, Titof
Scene 2. Valentina Valli, David Perry
Scene 3. Sophia Marquez, Silvia Lancome, Christoph Clark
Scene 4. Diana Rossi, Nicol, Christoph Clark, Steve Holmes
Scene 5. Carol, Nicky Reed, Andrea Moranty
Меню: Есть
Качество видео: DVD9
Видео: MPEG2 Video, 720x480, 4:3, 29.970 fps, ~7000 kb/s
Аудио: AC3 Dolby Digital, 48000Hz, 2ch, 192 kbps

Скриншоты

Меню

Скринлист

Скриншоты

Christoph's Beautiful Girls 6 (Красивые девушки Кристофа Кларка 6) Год производства: 2002 г.
Страна: USA
Жанр: Gonzo, Anal, DP, Hardcore
Продолжительность: 02:19:40
Режиссер: Christoph Clark
Студия: Evil Angel
Язык: Английский
В ролях: Denisa, Sabina Black, Claudia Jamsson, Dora Venter, Alexa May, Linda, Andrea, Nomi, Luisa DeMarco, Greg Centauro, Titof, David Perry, Choky Ice, Gary Boldiszar, Christoph Clark
Описание: Boy! Eastern Europe has lots of pretty girls. In Beautiful Girls 6, Christoph has assembled nine, count 'em, nine gorgeous women. And not only that, all of these lovely ladies love cock! What could be better than nine gorgeous girls who just love ANAL SEX?!
https://www.adultdvdempire.com/465319/christophs-be...amp;utm_content=
Доп. информация: Photo Gallery, Extra Sex
Сцены:
Scene 1. Denisa, Sabina Black, Christoph Clark
Scene 2. Claudia Jamsson, Dora Venter, Choky Ice, Gary Boldiszar
Scene 3. Alexa May, Linda, David Perry
Scene 4. Andrea, Nomi, Greg Centauro, Titof
Scene 5. Luisa DeMarco, Christoph Clark
Меню: Есть
Качество видео: DVD9
Видео: MPEG2 Video, 720x480, 4:3, 29.970 fps, ~7000 kb/s
Аудио: AC3 Dolby Digital, 48000Hz, 2ch, 192 kbps

Скриншоты

Меню

Скринлист

Скриншоты

Christoph's Beautiful Girls 7 (Красивые девушки Кристофа Кларка 7) Год производства: 2002 г.
Страна: USA
Жанр: Gonzo, Anal, Hardcore
Продолжительность: 02:44:41
Режиссер: Christoph Clark
Студия: Evil Angel
Язык: Английский
В ролях: Carmen, Lucy Lee, Janavi, Sindy Angel, Soffia Gently, Stacy Silver, Kelli, Jennifer Cool, Summer Storm, Tera Joy, Tina Wagner, Vivienne Laroche, Hatman, Christoph Clark, Juliano Ferraz, Steve Holmes, Greg Centauro, Manuel Ferrara
Описание: Christoph has a fascination with beautiful girls. His desires take him to the streets of Europe, into the bedrooms of horny women, and inside their juicy little twats. This movie abounds with slutty sexcapades; including 12 girls, lots of anal, sexy lingerie, and especially gorgeous Euro sluts getting fucked hard!
https://www.adultdvdempire.com/568826/christophs-be...amp;utm_content=
Доп. информация: Photo Gallery, Extra Sex
Сцены:
Scene 1. Carmen, Lucy Lee, Greg Centauro, Manuel Ferrara
Scene 2. Janavi, Sindy Angel, Steve Holmes
Scene 3. Soffia Gently, Stacy Silver, Greg Centauro, Manuel Ferrara
Scene 4. Kelli, Jennifer Cool, Christoph Clark, Juliano Ferraz
Scene 5. Summer Storm, Hatman
Scene 6. Tera Joy, Tina Wagner, Vivienne Laroche, Hatman
Меню: Есть
Качество видео: DVD9
Видео: MPEG2 Video, 720x480, 4:3, 29.970 fps, 5500 kb/s
Аудио: AC3 Dolby Digital, 48000Hz, 2ch, 192 kbps

Скриншоты

Меню

Скринлист

Скриншоты

Christoph's Beautiful Girls 8 (Красивые девушки Кристофа Кларка 8) Год производства: 2003 г.
Страна: USA
Жанр: Gonzo, Anal, DP, Hardcore
Продолжительность: 02:37:53
Режиссер: Christoph Clark
Студия: Evil Angel
Язык: Английский
В ролях: Janet, Polina, Christina Bella, Drimla, Sonja, Daphnye, Vanessa Virgin, Stella Hot, David Perry, Greg Centauro, Manuel Ferrara, Richard Langin, Christoph Clark, Jean-Michel Kossa, Leslie Taylor, Hatman
Описание: Christoph launches another expedition into the streets of Europe to find juicy cunts waiting for some cock. He succeeds with some gorgeous girls, eager-to-please sluts, and some really nasty sex!
https://www.adultdvdempire.com/467910/christophs-be...amp;utm_content=
Доп. информация: Photo Gallery, Extra Footage
Сцены:
Scene 1. Janet, Polina, Christoph Clark, Jean-Michel Kossa, Leslie Taylor
Scene 2. Christina Bella, David Perry, Greg Centauro, Manuel Ferrara, Richard Langin
Scene 3. Drimla, Sonja, Christoph Clark, Leslie Taylor
Scene 4. Daphnye, Vanessa Virgin, David Perry, Greg Centauro, Manuel Ferrara, Richard Langin
Scene 5. Daphnye, Stella Hot, Christoph Clark, Hatman
DVD Bonus. Daphnye, Christoph Clark
Меню: Есть
Качество видео: DVD9
Видео: MPEG2 Video, 720x480, 4:3, 29.970 fps, ~7000 kb/s
Аудио: AC3 Dolby Digital, 48000Hz, 2ch, 192 kbps

Скриншоты

Меню

Скринлист

Скриншоты

Christoph's Beautiful Girls 9 (Красивые девушки Кристофа Кларка 9) Год производства: 2003 г.
Страна: USA
Жанр: Gonzo, Anal, DP, Hardcore
Продолжительность: 02:41:09
Режиссер: Christoph Clark
Студия: Evil Angel
Язык: Английский
В ролях: Angelica, Bia, Bianca, Kristina Blonde, Mari Lee, Melinda Vecsey, Mery, Vanessa Virgin, Veronica Sinclair, Amanda, Diana Rossi, Janet, Justina, Karina Play, Leslie, Jennifer Cool, Olena, Natalya, Polina, Sindi, Steve Holmes, David Perry, Greg Centauro, Manuel Ferrara, Richard Langin
Описание: Imagine you're a Persian Sultan living sometime between the fifth and seventh centuries. At any point, you can walk into your harem and have your way with as many of the beautiful virgins as you'd like. Christoph has re-created this fantasy, minus the virgins. He has, however, collected ten gorgeous vixens -- each with big titties, a fat ass, and loose morals -- with whom he and his buddies have their way. Must be nice!
https://www.adultdvdempire.com/531090/christophs-be...amp;utm_content=
Доп. информация: Photo Gallery, Extra Footage
Сцены:
Scene 1. Angelica, Bia, Bianca, Kristina Blonde, Mari Lee, Melinda Vecsey, Mery, Vanessa Virgin, Veronica Sinclair, Steve Holmes
Scene 2. Vanessa Virgin, David Perry, Greg Centauro, Manuel Ferrara, Richard Langin
Scene 3. Amanda, Diana Rossi, Janet, Justina, Karina Play, Leslie, Jennifer Cool, Olena, Natalya, Polina, Sindi, Manuel Ferrara
Меню: Есть
Качество видео: DVD9
Видео: MPEG2 Video, 720x480, 4:3, 29.970 fps, ~7000 kb/s
Аудио: AC3 Dolby Digital, 48000Hz, 2ch, 192 kbps

Скриншоты

Меню

Скринлист

Скриншоты

Christoph's Beautiful Girls 10 (Красивые девушки Кристофа Кларка 10) Год производства: 2003 г.
Страна: USA
Жанр: Gonzo, Anal, DP, Hardcore
Продолжительность: 02:41:41
Режиссер: Christoph Clark
Студия: Evil Angel
Язык: Английский
В ролях: Stella Hot, Tiffany, Barbara Voice, Kata Hilton, Nikki Montana, Polina, Choky Ice, David Perry, Christoph Clark, Leslie Taylor, Thomas Stone
Описание: Total ASSvantage! You'll see three DP's, wild toys, and hot nasty sex, with every scene ending with a facial. Look deep into open, gaping assholes of these super nasty, but oh so beautiful Euro-sluts!
https://www.adultdvdempire.com/540896/christophs-be...amp;utm_content=
Доп. информация: Photo Gallery, Extra Footage
Сцены:
Scene 1. Stella Hot, Tiffany, Christoph Clark
Scene 2. Barbara Voice, Choky Ice, David Perry
Scene 3. Kata Hilton, Christoph Clark
Scene 4. Nikki Montana, David Perry, Leslie Taylor
Scene 5. Polina, Choky Ice, Christoph Clark, Thomas Stone
Меню: Есть
Качество видео: DVD9
Видео: MPEG2 Video, 720x480, 4:3, 29.970 fps, ~7000 kb/s
Аудио: AC3 Dolby Digital, 48000Hz, 2ch, 192 kbps

Скриншоты

Меню

Скринлист

Скриншоты

Christoph's Beautiful Girls 11 (Красивые девушки Кристофа Кларка 11) Год производства: 2003 г.
Страна: USA
Жанр: Gonzo, Anal, DP, Hardcore
Продолжительность: 02:29:42
Режиссер: Christoph Clark
Студия: Evil Angel
Язык: Английский
В ролях: Nikki Montana, Claudia Rossi, Jennifer Dark, Ditty Blue, Lucy Lee, Sarah Blue, Vivienne Laroche, Jean-Yves Le Castel, Manuel Ferrara, Steve Holmes, Greg Centauro, Ian Scott, Choky Ice, David Perry, Leslie Taylor
Описание: Some of the most beautiful Euro girls in Europe doing hardcore. Every girl in Beautiful Girls 11 does anal, and you'll be amazed and hard as hell, when you see all the double penetrations!
https://www.hotmovies.com/video/13408/Christoph-s-B...in=hotmovies.com
Доп. информация: Photo Gallery, Extra Footage
Сцены:
Scene 1. Nikki Montana, Choky Ice, David Perry, Leslie Taylor
Scene 2. Claudia Rossi, Jennifer Dark, Greg Centauro, Ian Scott
Scene 3. Ditty Blue, Manuel Ferrara, Steve Holmes
Scene 4. Lucy Lee, Sarah Blue, Jean-Yves Le Castel, Leslie Taylor
Scene 5. Vivienne Laroche, Choky Ice, David Perry, Jean-Yves Le Castel, Leslie Taylor
Меню: Есть
Качество видео: DVD9
Видео: MPEG2 Video, 720x480, 4:3, 29.970 fps, ~7000 kb/s
Аудио: AC3 Dolby Digital, 48000Hz, 2ch, 192 kbps

Скриншоты

Меню

Скринлист

Скриншоты

Christoph's Beautiful Girls 12 (Красивые девушки Кристофа Кларка 12) Год производства: 2003 г.
Страна: USA
Жанр: Gonzo, Anal, DP, Hardcore
Продолжительность: 02:36:02
Режиссер: Christoph Clark
Студия: Evil Angel
Язык: Английский
В ролях: Carrie Cruise, Melissa Black, Sabina Black, Sarah Twain, Simony Diamond, Claudia Ferrari, Jennifer London, Jennifer Red, Maya Gold, Alberto Rey, Bruno SX, Choky Ice, Greg Centauro, Jean-Yves Le Castel, David Perry, Franco Roccaforte, Juliano Ferraz, Ian Scott
Описание: Naked bodies ooze out of every inch of every frame of this movie. In fact, the Census Bureau needs to come in take a "head" count because of all the bodies missed in the last enumeration. All of the most beautiful girls from all around and so cock-hungry that it almost makes me want to join in the fun! See girls like Britney, Claudia, Melissa, Viktorie and lots more do all the nasty stuff you can only dream about--blowjobs, orgies, DPs and positions they just made up on the spot.
https://www.adultdvdempire.com/576049/christophs-be...amp;utm_content=
Доп. информация: Photo Gallery, Extra Footage
Сцены:
Scene 1. Carrie Cruise, Melissa Black, David Perry
Scene 2. Sabina Black, Sarah Twain, Choky Ice, Greg Centauro, Jean-Yves Le Castel
Scene 3. Simony Diamond, Greg Centauro
Scene 4. Claudia Ferrari, Jennifer London, Alberto Rey, Bruno SX
Scene 5. Jennifer Red, Maya Gold, David Perry, Franco Roccaforte, Juliano Ferraz, Ian Scott
Меню: Есть
Качество видео: DVD9
Видео: MPEG2 Video, 720x480, 4:3, 29.970 fps, ~7000 kb/s
Аудио: AC3 Dolby Digital, 48000Hz, 2ch, 192 kbps

Скриншоты

Меню

Скринлист

Скриншоты

Christoph's Beautiful Girls 13 (Красивые девушки Кристофа Кларка 13) Год производства: 2003 г.
Страна: USA
Жанр: Gonzo, Anal, DP, Hardcore
Продолжительность: 02:30:42
Режиссер: Christoph Clark
Студия: Evil Angel
Язык: Английский
В ролях: Kristina Blonde, Patricia Kahn, Sandra De Marco, Katerina, Camelia, Tiffany, Maya Gold, Juliano Ferraz, Kid Jamaica, Greg Centauro, Ian Scott, David Perry, Jean-Yves Le Castel
Описание: Christoph Clark knows what you want: European girls with lovely faces and endless appetites for cock. Not to mention some of the most depraved anal sex your heart desires. So cum pull up a seat and check out these gorgeous girls who crave cock up the ass and get exactly what they want - gaping assholes and faces covered in cum!
https://www.adultdvdempire.com/586070/christophs-be...amp;utm_content=
Доп. информация: Photo Gallery, Extra Footage
Сцены:
Scene 1. Kristina Blonde, David Perry, Jean-Yves Le Castel
Scene 2. Patricia Kahn, Sandra De Marco, Ian Scott, Jean-Yves Le Castel
Scene 3. Katerina, David Perry, Greg Centauro
Scene 4. Camelia, Tiffany, Greg Centauro, Ian Scott
Scene 5. Maya Gold, Juliano Ferraz, Kid Jamaica
Меню: Есть
Качество видео: DVD9
Видео: MPEG2 Video, 720x480, 4:3, 29.970 fps, ~7000 kb/s
Аудио: AC3 Dolby Digital, 48000Hz, 2ch, 192 kbps

Скриншоты

Меню

Скринлист

Скриншоты

Christoph's Beautiful Girls 14 (Красивые девушки Кристофа Кларка 14) Год производства: 2004 г.
Страна: USA
Жанр: Gonzo, Anal, DP, Hardcore
Продолжительность: 02:30:36
Режиссер: Christoph Clark
Студия: Evil Angel
Язык: Английский
В ролях: Megan D., Veronica Da Souza, Cindy Lords, Simony Diamond, Victoria Swinger, Jennifer London, Sunny Jay, Jacqueline Stone, Lucy Cattiva, Leslie Taylor, David Perry, Greg Centauro, Lauro Giotto, Roly Reeves
Описание: Christoph Clark brings you "Beautiful Girls 14!" 9 Drop Dead Gorgeous Girls, er...SLUTS get anal and DP's and suck and fuck their way to your heart! These pieces of Euro sleaze are only here to please and they'll do any depraved anal act you want to see! Get your cock ready...this is one ride you won't soon forget!
https://www.adultdvdempire.com/601562/christophs-be...amp;utm_content=
Доп. информация: Photo Gallery, Extra Footage
Сцены:
Scene 1. Megan D., Veronica Da Souza, Lauro Giotto, Roly Reeves
Scene 2. Cindy Lords, David Perry, Greg Centauro
Scene 3. Simony Diamond, Victoria Swinger, Lauro Giotto, Roly Reeves
Scene 4. Jennifer London, Sunny Jay, Leslie Taylor
Scene 5. Jacqueline Stone, Lucy Cattiva, Greg Centauro
Меню: Есть
Качество видео: DVD9
Видео: MPEG2 Video, 720x480, 4:3, 29.970 fps, ~7000 kb/s
Аудио: AC3 Dolby Digital, 48000Hz, 2ch, 192 kbps

Скриншоты

Меню

Скринлист

Скриншоты

Christoph's Beautiful Girls 15 (Красивые девушки Кристофа Кларка 15) Год производства: 2004 г.
Страна: USA
Жанр: Gonzo, Anal, DP, Hardcore
Продолжительность: 02:23:00
Режиссер: Christoph Clark
Студия: Evil Angel
Язык: Английский
В ролях: Claudia Rossi, Sandy Style, Christina Bella, Gloria Gucci, Ellen Saint, Nikki Sun, Liz Honey, Silvy Taylor, Franco Roccaforte, Mike Foster, Choky Ice, Lauro Giotto, Greg Centauro, Richard Langin, J.P.X., Sebastian Barrio
Описание: Christoph, our Frenchman in Budapest, brings together more incredibly lovely ladies, then videotapes them doing particularly un-lady like things: threesomes and foursomes, gaping anal, cum-swapping and blowjobs... not necessarily in that order. Christoph always brings the hottest, nastiest European beauties to share with you. Beauty is as beauty does!
https://www.adultdvdempire.com/609481/christophs-be...amp;utm_content=
Доп. информация: Photo Gallery, Extra Footage
Сцены:
Scene 1. Claudia Rossi, Sandy Style, J.P.X., Sebastian Barrio
Scene 2. Christina Bella, Gloria Gucci, Greg Centauro, Richard Langin
Scene 3. Ellen Saint, Choky Ice, Lauro Giotto
Scene 4. Nikki Sun, Greg Centauro, Richard Langin
Scene 5. Liz Honey, Silvy Taylor, Franco Roccaforte, Mike Foster
Меню: Есть
Качество видео: DVD9
Видео: MPEG2 Video, 720x480, 4:3, 29.970 fps, ~7000 kb/s
Аудио: AC3 Dolby Digital, 48000Hz, 2ch, 192 kbps

Скриншоты

Меню

Скринлист

Скриншоты

Christoph's Beautiful Girls 16 (Красивые девушки Кристофа Кларка 16) Год производства: 2004 г.
Страна: USA
Жанр: Gonzo, Anal, DP, Hardcore
Продолжительность: 02:40:00
Режиссер: Christoph Clark
Студия: Evil Angel
Язык: Английский
В ролях: Jessica Fiorentino, Sandra De Marco, Andy Brown, Helen, Nikita, Vika, Claudia Rossi, Judy White, Alexandra Joy, Patricia Well, Choky Ice, Jean-Pierre Armand, Jean-Yves Le Castel, Philippe Dean, Greg Centauro, Nick Lang, Richard Langin
Описание: All Anal! 10 lovely sluts! Ten beautiful, butt fuckin' babes in an all-anal sextravaganza! These lovelies are wanting nothing more than to fuck till they can't move or speak anymore. They suck many a hard and ready cock...more than one at a time. You know what's really great about Beautiful Girls? They bring their beautiful friends along to join in the fuckfest!
https://www.adultdvdempire.com/634795/christophs-be...amp;utm_content=
Доп. информация: Photo Gallery, Bonus Footage
Сцены:
Scene 1. Jessica Fiorentino, Sandra De Marco, Nick Lang, Richard Langin
Scene 2. Andy Brown, Helen, Greg Centauro
Scene 3. Nikita, Vika, Choky Ice, Jean-Pierre Armand, Jean-Yves Le Castel, Philippe Dean, Richard Langin
Scene 4. Claudia Rossi, Judy White, Greg Centauro, Nick Lang
Scene 5. Alexandra Joy, Patricia Well, Greg Centauro, Jean-Yves Le Castel, Nick Lang
Меню: Есть
Качество видео: DVD9
Видео: MPEG2 Video, 720x480, 4:3, 29.970 fps, ~7000 kb/s
Аудио: AC3 Dolby Digital, 48000Hz, 2ch, 192 kbps

Скриншоты

Меню

Скринлист

Скриншоты

Christoph's Beautiful Girls 17
Год производства: 2004
Жанр: Gonzo, Anal, Facial, A2M, IR, DP, Bald, Pee, CumSwap
Продолжительность: 02:51:28
Язык: Английский
Режиссер: Christoph Clark
Студия: Clark Euro Angel Video
Scene Breakdowns
Scene 1. Ellen Saint, Liliane Tiger, Jean-Yves Le Castel, Philippe Dean
Scene 2. Angel Dark, Greg Centauro, Nick Lang
Scene 3. Lucie Foxxx, Nika Blond, Greg Centauro, Nick Lang
Scene 4. Angel Dark, Simone Peach, Franco Roccaforte, Robert Rosenberg
Scene 5. Vika, Jean-Yves Le Castel
Меню: Есть
Качество видео: DVD9
Видео: MPEG-2, 720x480, 29.970 (30000/1001) FPS, 5 869 kb/s
Аудио: AC-3, 48.0 kHz, 2 channels, 192 kb/s

MediaInfo

General
Complete name                            : VTS_01_1.VOB
Format                                   : MPEG-PS
File size                                : 1 024 MiB
Duration                                 : 24 min 23 s
Overall bit rate mode                    : Variable
Overall bit rate                         : 5 869 kb/s
Video
ID                                       : 224 (0xE0)
Format                                   : MPEG Video
Format version                           : Version 2
Format profile                           : [email protected]
Format settings                          : BVOP
Format settings, BVOP                    : Yes
Format settings, Matrix                  : Default
Format settings, GOP                     : M=5, N=26
Format settings, picture structure       : Field
Duration                                 : 24 min 23 s
Bit rate mode                            : Variable
Bit rate                                 : 5 560 kb/s
Maximum bit rate                         : 9 800 kb/s
Width                                    : 720 pixels
Height                                   : 480 pixels
Display aspect ratio                     : 4:3
Frame rate                               : 29.970 (30000/1001) FPS
Standard                                 : NTSC
Color space                              : YUV
Chroma subsampling                       : 4:2:0
Bit depth                                : 8 bits
Scan type                                : Interlaced
Scan order                               : Top Field First
Compression mode                         : Lossy
Bits/(Pixel*Frame)                       : 0.537
Time code of first frame                 : 01:00:27;00
Time code source                         : Group of pictures header
GOP, Open/Closed                         : Open
Stream size                              : 970 MiB (95%)
Color primaries                          : BT.601 NTSC
Transfer characteristics                 : BT.601
Matrix coefficients                      : BT.601
Audio
ID                                       : 189 (0xBD)-128 (0x80)
Format                                   : AC-3
Format/Info                              : Audio Coding 3
Muxing mode                              : DVD-Video
Duration                                 : 24 min 23 s
Bit rate mode                            : Constant
Bit rate                                 : 192 kb/s
Channel(s)                               : 2 channels
Channel positions                        : Front: L R
Sampling rate                            : 48.0 kHz
Frame rate                               : 31.250 FPS (1536 SPF)
Bit depth                                : 16 bits
Compression mode                         : Lossy
Stream size                              : 33.5 MiB (3%)
Service kind                             : Complete Main
Menu

Скринлисты

Скриншоты

Christoph's Beautiful Girls 18 (Красивые девушки Кристофа Кларка 18) Год производства: 2004 г.
Страна: USA
Жанр: Gonzo, Anal, Hardcore
Продолжительность: 02:53:27
Режиссер: Christoph Clark
Студия: Evil Angel
Язык: Английский
В ролях: Veronika Vanoza, Angelina Crow, Lora Croft, Lucy Love, Carol Weiss, Vanessa Hill, Choky Ice, Jean-Yves Le Castel, Greg Centauro, Ian Scott
Описание: More anal. More funny accents. More incredible-looking European ladies doing dirty things at the behest of filthy-minded Frenchy Christoph Clark. DP's, facials, and a whole lot more - every lovely is an analphile! Their asses are open and eager, and even more important, they're all Beautiful Girls.
https://www.adultdvdempire.com/666557/christophs-be...amp;utm_content=
Доп. информация: Photo Gallery, Behind The Scenes
Сцены:
Scene 1. Veronika Vanoza, Choky Ice
Scene 2. Angelina Crow, Greg Centauro
Scene 3. Lora Croft, Choky Ice, Jean-Yves Le Castel
Scene 4. Lucy Love, Greg Centauro, Ian Scott
Scene 5. Carol Weiss, Vanessa Hill, Jean-Yves Le Castel
Меню: Есть
Качество видео: DVD9
Видео: MPEG2 Video, 720x480, 4:3, 29.970 fps, ~7000 kb/s
Аудио: AC3 Dolby Digital, 48000Hz, 2ch, 192 kbps

Скриншоты

Меню

Скринлист

Скриншоты

Christoph's Beautiful Girls 19 (Красивые девушки Кристофа Кларка 19) Год производства: 2005 г.
Страна: USA
Жанр: Gonzo, Anal, DP, Hardcore
Продолжительность: 02:47:28
Режиссер: Christoph Clark
Студия: Evil Angel
Язык: Английский
В ролях: Tiffany Hopkins, Michela Sabatini, Cora Carina, Nikki Rider, Sharka Blue, James Brossman, Greg Centauro, Jean-Yves Le Castel, Ian Scott
Описание: Our favorite Frenchman delivers another batch of European beauties who love butt sex. These lovely ladies do the nastiest things - you won't believe your eyes! Beauty is as beauty does, and what's more beautiful than watching sweet pussy and ass stuffed full of hard meat?
https://www.adultdvdempire.com/680921/christophs-be...amp;utm_content=
Доп. информация: Photo Gallery, Extra Footage
Сцены:
Scene 1. Tiffany Hopkins, Greg Centauro, Jean-Yves Le Castel, Ian Scott
Scene 2. Michela Sabatini, Jean-Yves Le Castel, Ian Scott
Scene 3. Cora Carina, Greg Centauro
Scene 4. Nikki Rider, James Brossman
Scene 5. Sharka Blue, Greg Centauro
Меню: Есть
Качество видео: DVD9
Видео: MPEG2 Video, 720x480, 4:3, 29.970 fps, ~7000 kb/s
Аудио: AC3 Dolby Digital, 48000Hz, 2ch, 192 kbps

Скриншоты

Меню

Скринлист

Скриншоты

Christoph's Beautiful Girls 20 (Красивые девушки Кристофа Кларка 20) Год производства: 2005 г.
Страна: USA
Жанр: Gonzo, Anal, DP, Hardcore
Продолжительность: 02:05:03 + 01:35:03
Режиссер: Christoph Clark
Студия: Evil Angel, Valentine Video
Язык: Английский
В ролях: Suzie Carina, Sativa Rose, Jennifer Stone, Nikki Rider, Belicia, Carmelita, Tiffany Mynx, Sunny Jay, Manuel Ferrara, Mr. Pete, Choky Ice, Dieter Von Stein, James Brossman, Nick Lang
Описание: Clark Euro Angel Video presents "Christoph's Beautiful Girls 20," starring Belicia Avalos, Cartelita, Jennifer Stone, Nikki Rider, Sativa Rose, Sunny Jay, Suzie Carina, and Tiffany Mynx. Christoph celebrates the twentieth in this well-loved series featuring two American scenes amid the usual European beauties. These sluts take it in every hole in this absolute classic of oral and anal lust. These whores are beautiful and insatiable for cock - this is a must see!
https://www.adultdvdempire.com/751412/christophs-be...amp;utm_content=
Доп. информация: Disc 2: Trailer, Bonus Footage
Сцены:
Scene 1. Suzie Carina, Choky Ice, Dieter Von Stein, James Brossman, Nick Lang
Scene 2. Sativa Rose, Mr. Pete
Scene 3. Jennifer Stone, James Brossman, Nick Lang
Scene 4. Nikki Rider, Dieter Von Stein, Nick Lang
Scene 5. Belicia, Carmelita, Choky Ice, James Brossman
Scene 6. Tiffany Mynx, Manuel Ferrara
Scene 7. Sunny Jay, Choky Ice
Меню: Есть
Качество видео: 2x DVD5
Видео: MPEG2 Video, 720x480, 4:3, 29.970 fps, ~6000 kb/s
Аудио: AC3 Dolby Digital, 48000Hz, 2ch, 192 kbps

Скриншоты

Disc 1

Меню

Скринлист

Скриншоты

Disc 2

Меню

Скринлист

Скриншоты

Christoph's Beautiful Girls 21 (Красивые девушки от Кристофа Кларка 21) Год производства: 2005 г.
Страна: USA
Жанр: All Sex, Gonzo, Anal, Double Penetration
Продолжительность: 01:53:29
Режиссер: Christoph Clark
Студия: Evil Angel
Язык: Английский
В ролях: Eva Angelina, Angela Stone, Cory Everson, Terri Summers, Sariah James, Lauren Phoenix, Nick Lang, Greg Centauro, Mark Wood, Joel Lawrence, Steve Holmes, Mr. Pete
Описание: Somehow Christoph continues to find gorgeous girls who also happen to be filthy whores who love to get fucked hard. Including anal, and two (yes two) double penetrations.
Доп. материалы: Documentary (11 min.), Photo Gallery, Filmographies, Cast List
Меню: Есть
Качество видео: DVD9
Видео: MPEG Video, NTSC, 720x480, 4:3, 29.970fps, ~7000 kb/s
Аудио: AC-3, 48kHz, 2ch, 192 kb/s

Скриншоты

Меню

Скринлист

[erzsebet.org].t2967882.torrent
Торрент: Зарегистрирован [ 2020-09-03 13:10 ]

Скачать .torrent

Скачать

202 KB

Статус: проверено
Скачан: 0 раз
Размер: 159.86 GB
Поблагодарили: 2  Спасибо   (список)
terms.php
[Профиль]  [ЛС] 

Создавать темы 03-Сен-2020 13:27 (спустя 56 минут)  |  Сменить автора

Топик был перенесен из форума Мой личный форум в форум Full Length Movies (DVD) / Фильмы (DVD)
erzsebet
 

Clarkund

Стаж: 6 месяцев 12 дней

Сообщений: 4

Создавать темы 03-Сен-2020 19:29 (спустя 6 часов)  |  Сменить автора

[Цитировать] 

На лабе фильмы есть по отдельности, но так, сборником, выглядит лучше.
ay
[Профиль]  [ЛС] 

Gwori

Стаж: 7 месяцев 13 дней

Сообщений: 62

Создавать темы 03-Сен-2020 19:45 (спустя 15 минут)  |  Сменить автора

[Цитировать] 

527606сборником, выглядит лучше.
Плюсую.
[Профиль]  [ЛС] 

erzsebet ®

Стаж: 18 лет

Сообщений: 522174

Откуда: Венгрия

Создавать темы 03-Сен-2020 22:58 (спустя 3 часа)  |  Сменить автора

[Цитировать] 

Clarkund, Gwori, Спасибо Камрады,
Гворыч, извини затянул, хотя давно обещал
[Профиль]  [ЛС] 

erzsebet ®

Стаж: 18 лет

Сообщений: 522174

Откуда: Венгрия

Создавать темы 12-Сен-2020 17:20 (спустя 8 дней)  |  Сменить автора

[Цитировать] 

Clarkund, Gwori, Мужики я вам оставлю ответ, который вы оба точно увидите, месяц придется теперь еще ждать, я только в октябре теперь могу купить нужное для компов, думал тогда в августе купить, а эти идиоты опять ценники подняли, и я все деньги на себя потратил, а не на компы, соррян камрады
[Профиль]  [ЛС] 
Показать сообщения:    
Ответить на тему

Текущее время: 21-Сен 22:03

Часовой пояс: UTC + 3



Вы не можете начинать темы
Вы не можете отвечать на сообщения
Вы не можете редактировать свои сообщения
Вы не можете удалять свои сообщения
Вы не можете голосовать в опросах
Вы не можете прикреплять файлы к сообщениям
Вы можете скачивать файлы